<?xml version="1.0" standalone="no"?>
<!DOCTYPE svg PUBLIC "-//W3C//DTD SVG 1.1//EN" "http://www.w3.org/Graphics/SVG/1.1/DTD/svg11.dtd" >
<svg xmlns="http://www.w3.org/2000/svg">
<metadata>Generated by IcoMoon</metadata>
<defs>
<font id="cmsmasters-demo-icons" horiz-adv-x="1024">
<font-face units-per-em="1024" ascent="960" descent="-64" />
<missing-glyph horiz-adv-x="1024" />
<glyph unicode="&#x20;" horiz-adv-x="512" d="" />
<glyph unicode="&#xe900;" glyph-name="cart" d="M253.353 646.507l25.728-306.006c1.877-23.552 21.12-41.216 44.629-41.216h465.79c22.229 0 41.216 16.555 44.373 38.528l40.533 279.851c0.939 6.656-0.725 13.312-4.779 18.688-4.011 5.419-9.899 8.917-16.555 9.856-8.917-0.341-378.965 0.171-599.721 0.299zM323.625 235.285c-56.192 0-103.765 43.861-108.331 99.968l-39.083 464.811-64.299 11.093c-17.451 3.072-29.099 19.584-26.112 37.035 3.072 17.451 19.925 28.8 36.992 26.069l88.747-15.36c14.293-2.517 25.173-14.379 26.411-28.885l10.026-119.509c609.108-0.256 611.070-0.555 614.014-0.896 23.765-3.456 44.672-15.872 58.923-34.987 14.251-19.072 20.224-42.581 16.811-66.133l-40.491-279.808c-7.637-53.248-53.888-93.397-107.648-93.397h-465.961zM720.973 488.798h-118.272c-17.707 0-32 14.336-32 32s14.293 32 32 32h118.272c17.664 0 32-14.336 32-32s-14.336-32-32-32zM305.269 119.381c12.843 0 23.21-10.368 23.21-23.211s-10.368-23.253-23.21-23.253c-12.885 0-23.253 10.411-23.253 23.253s10.368 23.211 23.253 23.211zM305.226 104.917c-4.821 0-8.747-3.925-8.747-8.747 0-9.685 17.536-9.685 17.536 0 0 4.821-3.968 8.747-8.789 8.747zM305.226 40.917c-30.464 0-55.211 24.789-55.211 55.253s24.747 55.211 55.211 55.211c30.464 0 55.253-24.747 55.253-55.211s-24.789-55.253-55.253-55.253zM786.56 119.381c12.843 0 23.253-10.368 23.253-23.211s-10.411-23.253-23.253-23.253c-12.885 0-23.253 10.411-23.253 23.253s10.368 23.211 23.253 23.211zM786.517 104.922c-4.779 0-8.704-3.925-8.704-8.747 0.043-9.771 17.536-9.685 17.493 0 0 4.821-3.968 8.747-8.789 8.747zM786.517 40.922c-30.464 0-55.211 24.789-55.211 55.253s24.747 55.211 55.211 55.211c30.507 0 55.296-24.747 55.296-55.211s-24.789-55.253-55.296-55.253z" />
<glyph unicode="&#xe901;" glyph-name="arrow-down" d="M123.742 330.314l344.145-344.144c21.119-21.117 55.359-21.117 76.477 0l344.144 344.144c21.117 21.117 21.117 55.359 0 76.478s-55.359 21.118-76.476-0.001l-251.829-251.832-0.001 770.735h-108.154l0.001-770.735-251.83 251.832c-21.118 21.119-55.358 21.119-76.476 0s-21.118-55.36 0-76.477z" />
<glyph unicode="&#xe902;" glyph-name="arrow-left" d="M381.157 852.877l-364.389-364.389c-22.361-22.361-22.361-58.615 0-80.976l364.389-364.39c22.361-22.359 58.614-22.359 80.976 0s22.361 58.615 0 80.974l-266.643 266.645h816.072v114.517h-816.072l266.643 266.643c22.361 22.361 22.361 58.614 0 80.975s-58.615 22.361-80.976 0z" />
<glyph unicode="&#xe903;" glyph-name="arrow-right" d="M630.405 852.877l364.387-364.389c22.359-22.361 22.359-58.615 0-80.976l-364.387-364.39c-22.365-22.359-58.617-22.359-80.978 0s-22.361 58.615 0 80.974l266.641 266.645h-816.068v114.517h816.068l-266.641 266.643c-22.361 22.361-22.361 58.614 0 80.975s58.613 22.361 80.978 0z" />
<glyph unicode="&#xe904;" glyph-name="arrow-up" d="M894.384 565.713l-344.146 344.145c-21.118 21.118-55.358 21.118-76.477 0l-344.145-344.145c-21.118-21.118-21.118-55.358 0-76.476s55.358-21.119 76.476 0l251.829 251.829v-770.734h108.155v770.734l251.831-251.829c21.117-21.119 55.359-21.119 76.476 0s21.117 55.358 0 76.476z" />
<glyph unicode="&#xe905;" glyph-name="book" d="M978.008 887.45c-14.373 12.044-31.217 20.766-49.349 25.546s-37.091 5.497-55.53 2.102l-263.678-47.915c-37.732-6.803-72.066-26.135-97.45-54.869-25.365 28.781-59.701 48.159-97.45 54.997l-263.68 47.915c-18.442 3.349-37.394 2.607-55.518-2.174s-34.976-13.484-49.367-25.493c-14.39-12.010-25.968-27.033-33.914-44.009s-12.067-35.49-12.071-54.233v-718.251l512-93.14 512 93.14v718.251c0 18.73-4.118 37.23-12.069 54.19-7.943 16.959-19.529 31.962-33.924 43.943v0zM469.334 72.514l-384 69.72v647.083c0.005 6.247 1.382 12.417 4.033 18.073s6.513 10.661 11.311 14.661c4.797 4 10.416 6.898 16.456 8.489s12.357 1.837 18.504 0.718l263.637-47.915c19.662-3.577 37.445-13.942 50.248-29.286s19.814-34.697 19.811-54.682v-626.861zM938.664 142.321l-383.998-69.808v626.861c-0.003 19.985 7.009 39.337 19.811 54.682s30.585 25.71 50.248 29.286l263.638 47.915c6.144 1.118 12.464 0.873 18.505-0.718s11.659-4.489 16.457-8.489c4.798-4 8.653-9.005 11.308-14.661 2.648-5.656 4.030-11.826 4.030-18.073v-646.995z" />
<glyph unicode="&#xe906;" glyph-name="calendar" d="M881.771 537.417h-760.489c-17.664 0-32 14.336-32 32s14.336 32 32 32h760.489c17.664 0 32-14.336 32-32s-14.336-32-32-32zM691.255 370.79c-17.664 0-32.171 14.336-32.171 32s14.123 32 31.787 32h0.384c17.664 0 32-14.336 32-32s-14.336-32-32-32zM501.922 370.79c-17.664 0-32.171 14.336-32.171 32s14.123 32 31.787 32h0.384c17.664 0 32-14.336 32-32s-14.336-32-32-32zM312.192 370.79c-17.664 0-32.213 14.336-32.213 32s14.165 32 31.829 32h0.384c17.664 0 32-14.336 32-32s-14.336-32-32-32zM691.255 204.958c-17.664 0-32.171 14.336-32.171 32s14.123 32 31.787 32h0.384c17.664 0 32-14.336 32-32s-14.336-32-32-32zM501.922 204.958c-17.664 0-32.171 14.336-32.171 32s14.123 32 31.787 32h0.384c17.664 0 32-14.336 32-32s-14.336-32-32-32zM312.192 204.958c-17.664 0-32.213 14.336-32.213 32s14.165 32 31.829 32h0.384c17.664 0 32-14.336 32-32s-14.336-32-32-32zM673.856 712.917c-17.664 0-32 14.336-32 32v140.416c0 17.664 14.336 32 32 32s32-14.336 32-32v-140.416c0-17.664-14.336-32-32-32zM329.187 712.917c-17.664 0-32 14.336-32 32v140.416c0 17.664 14.336 32 32 32s32-14.336 32-32v-140.416c0-17.664-14.336-32-32-32zM320.896 785.958c-110.635 0-171.563-59.008-171.563-166.144v-386.091c0-109.483 60.928-169.728 171.563-169.728h360.875c110.635 0 171.563 59.136 171.563 166.485v389.333c0.171 52.693-13.995 93.653-42.112 121.813-28.928 29.013-73.515 44.331-129.067 44.331h-361.259zM681.771-0.004h-360.875c-145.28 0-235.563 89.557-235.563 233.728v386.091c0 141.995 90.283 230.144 235.563 230.144h361.259c72.917 0 133.205-21.845 174.379-63.104 39.979-40.149 61.013-97.877 60.8-167.125v-389.248c0-142.165-90.283-230.485-235.563-230.485v0z" />
<glyph unicode="&#xe907;" glyph-name="chevron-up" d="M1003.636 292.366l-442.473 442.472c-27.152 27.152-71.174 27.152-98.327 0l-442.472-442.472c-27.153-27.152-27.153-71.175 0-98.328 27.152-27.151 71.175-27.151 98.328 0l393.308 393.309 393.308-393.309c27.153-27.151 71.175-27.151 98.328 0 27.152 27.152 27.152 71.175 0 98.328z" />
<glyph unicode="&#xe908;" glyph-name="chevron-left" d="M667.634 939.636l-442.472-442.473c-27.152-27.152-27.152-71.174 0-98.327l442.472-442.472c27.152-27.153 71.175-27.153 98.328 0 27.151 27.152 27.151 71.175 0 98.328l-393.309 393.308 393.309 393.308c27.151 27.153 27.151 71.175 0 98.328-27.152 27.152-71.175 27.152-98.328 0z" />
<glyph unicode="&#xe909;" glyph-name="chevron-down" d="M1003.636 636.584l-442.473-442.472c-27.152-27.152-71.174-27.152-98.327 0l-442.472 442.472c-27.153 27.152-27.153 71.175 0 98.327s71.175 27.152 98.328 0l393.308-393.308 393.308 393.308c27.153 27.152 71.175 27.152 98.328 0s27.152-71.175 0-98.327z" />
<glyph unicode="&#xe90a;" glyph-name="chevron-right" d="M323.416 939.636l442.472-442.473c27.152-27.152 27.152-71.174 0-98.327l-442.472-442.472c-27.152-27.153-71.175-27.153-98.327 0s-27.152 71.175 0 98.328l393.308 393.308-393.308 393.308c-27.152 27.153-27.152 71.175 0 98.328s71.175 27.152 98.327 0z" />
<glyph unicode="&#xe90b;" glyph-name="circle" d="M512 960c282.77 0 512-229.23 512-512s-229.23-512-512-512c-282.77 0-512 229.23-512 512s229.23 512 512 512z" />
<glyph unicode="&#xe90c;" glyph-name="clock" d="M61.859 447.992c0 248.602 201.531 450.133 450.134 450.133s450.132-201.532 450.132-450.133c0-248.6-201.53-450.136-450.132-450.136s-450.134 201.536-450.134 450.136zM511.993 834.125c-213.256 0-386.134-172.877-386.134-386.133 0-213.252 172.878-386.136 386.134-386.136s386.132 172.883 386.132 386.136c0 213.256-172.877 386.133-386.132 386.133zM479.993 447.992v268.8h64v-255.545l169.825-169.829-45.254-45.254-179.198 179.201c-6.001 6.001-9.372 14.14-9.372 22.627z" />
<glyph unicode="&#xe90d;" glyph-name="close" d="M18.991 941.006c25.322 25.326 66.381 25.324 91.703 0.001l401.305-401.308 401.306 401.307c25.325 25.326 66.382 25.32 91.702 0.002 25.325-25.322 25.325-66.381 0-91.703l-401.306-401.308 401.306-401.303c25.325-25.325 25.325-66.382 0-91.702-12.654-12.654-29.297-18.993-45.848-18.993s-33.194 6.333-45.854 18.993l-401.306 401.306-401.303-401.306c-12.658-12.654-29.3-18.993-45.852-18.993-16.55 0-33.193 6.333-45.851 18.987-25.326 25.325-25.324 66.382-0.001 91.707l401.305 401.306-401.304 401.305c-25.326 25.324-25.32 66.381-0.002 91.702z" />
<glyph unicode="&#xe90e;" glyph-name="comment" d="M36.571 823.851c0 55.064 44.58 99.577 99.62 99.577h756.583c55.040 0 99.621-44.513 99.621-99.577v-567.068c0-55.063-44.581-99.577-99.621-99.577h-366.107l-242.445-181.716c-11.083-8.309-25.907-9.64-38.294-3.445s-20.211 18.856-20.211 32.709v152.452h-89.526c-55.040 0-99.62 44.515-99.62 99.577v567.068zM136.191 850.286c-14.691 0-26.477-11.813-26.477-26.435v-567.068c0-14.622 11.786-26.435 26.477-26.435h162.669v-152.48l203.439 152.48h390.475c14.694 0 26.478 11.813 26.478 26.435v567.068c0 14.622-11.783 26.435-26.478 26.435h-756.583zM288.766 671.399h451.433v-73.143h-451.433v73.143zM288.766 482.377h325.337v-73.143h-325.337v73.143z" />
<glyph unicode="&#xe90f;" glyph-name="discount" d="M466.987 103.45c25.173-24.576 65.707-24.277 90.709 0.853l30.805 30.72c23.893 23.851 56.917 37.461 90.581 37.461h43.947c35.584 0 64.512 28.928 64.512 64.469v43.904c0 34.176 13.227 66.304 37.376 90.496l30.72 30.763c12.501 12.544 19.2 28.8 19.157 46.037-0.043 17.195-6.827 33.365-19.072 45.568l-30.763 30.805c-24.192 24.363-37.419 56.448-37.419 90.624v43.819c0 35.584-28.928 64.512-64.512 64.512h-43.861c-34.176 0-66.304 13.269-90.496 37.291l-30.805 30.848c-25.643 25.387-66.56 25.259-91.605 0.043l-30.677-30.763c-24.492-24.192-56.62-37.419-90.668-37.419h-43.904c-35.541-0.043-64.469-28.971-64.469-64.512v-43.733c0-34.176-13.269-66.304-37.333-90.539l-30.293-30.336c-0.299-0.341-0.597-0.597-0.896-0.896-25.045-25.216-24.917-66.133 0.299-91.179l30.805-30.805c24.149-24.235 37.419-56.363 37.419-90.539v-43.989c0-35.541 28.885-64.469 64.469-64.469h43.819c34.219-0.043 66.347-13.312 90.54-37.419l30.763-30.677c0.256-0.299 0.555-0.597 0.853-0.939v0zM511.957 21.274c-32.725 0-65.451 12.373-90.497 37.205-0.341 0.341-0.683 0.683-1.024 1.067l-30.293 30.251c-12.075 11.989-28.203 18.645-45.355 18.688h-43.776c-70.869 0-128.469 57.643-128.469 128.469v43.989c0 17.152-6.699 33.237-18.731 45.355l-30.677 30.635c-49.835 49.579-50.432 130.304-1.493 180.651 0.384 0.384 0.768 0.768 1.152 1.152l31.061 31.147c11.989 12.075 18.688 28.245 18.688 45.355v43.733c0 70.827 57.6 128.469 128.427 128.512h43.947c17.109 0 33.237 6.699 45.483 18.773l30.507 30.592c49.879 50.219 131.415 50.475 181.719 0.469l31.189-31.189c12.075-11.989 28.203-18.645 45.355-18.645h43.861c70.869 0 128.512-57.643 128.512-128.512v-43.819c0-17.109 6.656-33.28 18.731-45.44l30.635-30.677c24.277-24.107 37.76-56.32 37.888-90.667s-13.141-66.645-37.333-91.008l-31.275-31.189c-11.989-12.075-18.645-28.16-18.645-45.312v-43.904c0-70.827-57.643-128.469-128.469-128.469h-43.989c-16.896 0-33.408-6.827-45.397-18.731l-30.635-30.635c-25.045-25.216-58.069-37.845-91.093-37.845v0zM402.364 306.287c-8.192 0-16.384 3.115-22.613 9.387-12.501 12.501-12.501 32.725 0 45.227l219.306 219.349c12.501 12.501 32.768 12.501 45.269 0s12.501-32.768 0-45.269l-219.349-219.306c-6.229-6.272-14.421-9.387-22.613-9.387zM618.816 298.709c-23.595 0-42.88 19.072-42.88 42.667s18.901 42.667 42.496 42.667h0.384c23.595 0 42.667-19.072 42.667-42.667s-19.072-42.667-42.667-42.667zM405.484 512.043c-23.595 0-42.88 19.072-42.88 42.666s18.901 42.667 42.496 42.667h0.384c23.593 0 42.665-19.072 42.665-42.667s-19.072-42.666-42.665-42.666z" />
<glyph unicode="&#xe910;" glyph-name="eye" d="M128.905 447.99c3.555 7.494 8.899 18.132 16.129 30.89 15.025 26.515 37.992 61.83 69.677 97.036 63.326 70.363 159.851 138.74 297.281 138.74s233.954-68.377 297.282-138.74c31.686-35.206 54.656-70.521 69.677-97.036 7.232-12.758 12.576-23.396 16.128-30.89-3.552-7.494-8.896-18.132-16.128-30.89-15.021-26.515-37.99-61.83-69.677-97.036-63.328-70.361-159.853-138.739-297.282-138.739s-233.955 68.378-297.281 138.739c-31.686 35.206-54.653 70.521-69.677 97.036-7.229 12.758-12.574 23.396-16.129 30.89zM930.125 447.99c29.715 11.884 29.709 11.898 29.702 11.913l-0.013 0.035-0.147 0.356-0.352 0.847c-0.288 0.705-0.704 1.686-1.242 2.927-1.075 2.48-2.643 5.996-4.717 10.401-4.154 8.804-10.349 21.19-18.726 35.964-16.704 29.485-42.272 68.837-77.786 108.297-71.072 78.971-183.616 159.926-344.853 159.926s-273.779-80.956-344.852-159.926c-35.514-39.46-61.080-78.812-77.788-108.297-8.372-14.774-14.57-27.16-18.721-35.964-2.076-4.405-3.644-7.921-4.719-10.401-0.538-1.24-0.952-2.222-1.245-2.927l-0.349-0.847-0.107-0.264-0.037-0.091-0.014-0.035c-0.006-0.015-0.012-0.029 29.7-11.913l-29.711 11.884c-3.051-7.629-3.051-16.14 0-23.769l29.711 11.885c-29.711-11.885-29.706-11.898-29.7-11.913l0.014-0.035 0.037-0.092 0.107-0.264 0.349-0.847c0.294-0.705 0.708-1.687 1.245-2.927 1.075-2.48 2.643-5.997 4.719-10.401 4.151-8.805 10.349-21.19 18.721-35.964 16.708-29.485 42.274-68.837 77.788-108.298 71.073-78.971 183.615-159.924 344.852-159.924s273.781 80.954 344.853 159.924c35.514 39.46 61.082 78.812 77.786 108.297 8.378 14.774 14.573 27.16 18.726 35.965 2.074 4.404 3.642 7.921 4.717 10.401 0.538 1.24 0.954 2.222 1.242 2.927l0.352 0.848 0.109 0.264 0.038 0.091 0.013 0.036c0.006 0.015 0.013 0.028-29.702 11.913zM930.125 447.99l29.715 11.884c3.046-7.629 3.046-16.14 0-23.769l-29.715 11.885zM360.526 447.99c0 83.652 67.814 151.466 151.467 151.466s151.469-67.814 151.469-151.466c0-83.653-67.817-151.467-151.469-151.467s-151.467 67.814-151.467 151.467zM511.993 535.456c-48.307 0-87.467-39.16-87.467-87.466s39.16-87.467 87.467-87.467c48.306 0 87.466 39.16 87.466 87.467s-39.16 87.466-87.466 87.466z" />
<glyph unicode="&#xe911;" glyph-name="flash" d="M327.315-64l131.657 384h-394.972l614.4 640-131.657-384h394.972l-614.401-640z" />
<glyph unicode="&#xe912;" glyph-name="heart" d="M163.144 442.747c59.818-186.112 296.15-336.595 358.954-373.846 63.019 37.632 301.059 189.782 358.951 373.676 38.020 118.869 2.736 269.44-137.472 314.624-67.922 21.802-147.154 8.533-201.852-33.792-11.435-8.79-27.307-8.96-38.827-0.256-57.941 43.562-133.632 56.32-202.624 34.048-139.989-45.142-175.146-195.712-137.13-314.454zM522.141-0.051c-5.291 0-10.539 1.28-15.318 3.884-13.354 7.3-327.936 180.692-404.608 419.373-0.042 0-0.042 0.043-0.042 0.043-48.128 150.272 5.461 339.114 178.474 394.88 81.238 26.282 169.77 14.72 241.366-30.464 69.376 43.861 161.536 55.978 241.152 30.464 173.18-55.851 226.94-244.651 178.856-394.88-74.196-235.944-391.080-411.948-404.52-419.328-4.779-2.648-10.070-3.972-15.36-3.972zM774.568 506.661c-16.508 0-30.508 12.672-31.868 29.398-2.816 35.072-26.285 64.682-59.693 75.477-16.854 5.462-26.070 23.51-20.65 40.278 5.504 16.81 23.381 25.942 40.277 20.65 58.155-18.816 98.903-70.314 103.891-131.2 1.412-17.621-11.688-33.066-29.308-34.474-0.9-0.086-1.748-0.128-2.648-0.128z" />
<glyph unicode="&#xe913;" glyph-name="image" d="M326.464 810.667c-107.563 0-177.109-73.771-177.109-187.904v-347.563c0-114.176 69.547-187.904 177.109-187.904h368.896c107.733 0 177.323 73.728 177.323 187.904v347.563c0.085 58.155-17.664 106.709-51.285 140.373-31.061 31.104-74.539 47.531-125.824 47.531h-369.11zM695.36 23.296h-368.896c-144.213 0-241.109 101.248-241.109 251.904v347.563c0 150.656 96.896 251.904 241.109 251.904h369.11c68.608 0 127.787-22.912 171.093-66.304 45.269-45.312 70.101-111.232 70.016-185.643v-347.52c0-150.656-96.981-251.904-241.323-251.904v0zM377.876 631.917c-25.771 0-46.72-20.949-46.72-46.763 0-25.771 20.949-46.72 46.763-46.72 25.771 0 46.763 20.949 46.763 46.677-0.043 25.813-21.035 46.763-46.805 46.805zM377.919 474.432c-61.099 0-110.763 49.664-110.763 110.722 0 61.099 49.664 110.763 110.763 110.763 61.057-0.043 110.721-49.707 110.764-110.72v-0.043c0-61.058-49.664-110.722-110.764-110.722zM159.965 101.931c-5.291 0-10.667 1.323-15.616 4.096-15.445 8.661-20.864 28.16-12.245 43.563 2.56 4.608 63.787 112.853 131.157 168.32 53.419 43.947 110.933 19.797 157.269 0.299 27.265-11.477 53.036-22.315 77.782-22.315 22.699 0 51.157 40.107 76.331 75.477 34.944 49.323 74.624 105.131 132.736 105.131 92.587 0 172.501-82.603 215.467-126.976l4.949-5.12c12.288-12.672 11.989-32.939-0.683-45.269-12.587-12.331-32.853-12.032-45.227 0.683l-5.035 5.205c-36.352 37.589-104.021 107.477-169.472 107.477-25.088 0-54.528-41.515-80.597-78.165-35.755-50.347-72.747-102.443-128.469-102.443-37.675 0-72.193 14.507-102.614 27.349-48.384 20.395-70.315 26.923-91.776 9.259-58.197-47.957-115.456-149.248-116.011-150.229-5.845-10.453-16.725-16.341-27.947-16.341z" />
<glyph unicode="&#xe914;" glyph-name="location" d="M522.688 597.333c-41.173 0-74.667-33.493-74.667-74.709 0-41.173 33.493-74.624 74.667-74.624s74.667 33.451 74.667 74.624c0 41.216-33.493 74.709-74.667 74.709zM522.688 384c-76.459 0-138.667 62.165-138.667 138.624 0 76.501 62.208 138.709 138.667 138.709s138.667-62.208 138.667-138.709c0-76.459-62.208-138.624-138.667-138.624zM522.645 810.667c-158.805 0-288-130.432-288-290.688 0-203.904 239.957-402.56 288-413.141 48.043 10.624 288 209.28 288 413.141 0 160.256-129.195 290.688-288 290.688v0zM522.645 42.667c-76.544 0-352 236.885-352 477.312 0 195.584 157.909 354.688 352 354.688s352-159.104 352-354.688c0-240.427-275.456-477.312-352-477.312v0z" />
<glyph unicode="&#xe915;" glyph-name="menu" d="M1017.678 223.232h-1011.356v-112.372h1011.356v112.372zM1017.678 504.187h-1011.356v-112.374h1011.356v112.374zM1017.678 785.139h-1011.356v-112.374h1011.356v112.374z" />
<glyph unicode="&#xe916;" glyph-name="minus" d="M975.863 550.4h-927.726c-26.585 0-48.137-21.552-48.137-48.137v-106.971c0-26.585 21.552-48.137 48.137-48.137h927.726c26.586 0 48.137 21.552 48.137 48.137v106.971c0 26.585-21.551 48.137-48.137 48.137z" />
<glyph unicode="&#xe917;" glyph-name="phone" d="M944.755 510.579c-16.085 0-29.909 12.075-31.744 28.416-16.171 144.043-128.043 255.829-272.128 271.829-17.536 1.963-30.208 17.749-28.245 35.328 1.92 17.536 17.579 30.464 35.328 28.245 173.995-19.328 309.12-154.283 328.619-328.235 1.963-17.579-10.667-33.408-28.203-35.371-1.195-0.128-2.432-0.213-3.627-0.213zM793.715 510.114c-15.019 0-28.373 10.581-31.36 25.858-12.288 63.147-60.971 111.829-124.032 124.075-17.365 3.371-28.672 20.139-25.301 37.504s20.437 28.715 37.504 25.301c88.789-17.237 157.355-85.76 174.635-174.592 3.371-17.41-7.936-34.178-25.259-37.549-2.091-0.384-4.139-0.597-6.187-0.597zM140.319 785.585l3.095 3.235c82.237 82.244 135.79 104.044 192.93 71.186 16.436-9.452 31.846-22.682 52.799-43.963l64.271-66.646c35.499-38.737 43.571-75.893 32.013-119.408l-1.596-5.761-1.766-5.728-8.593-25.208c-18.389-56.532-10.709-88.429 54.72-153.841 68.041-68.023 99.802-73.587 160.691-52.309l10.854 3.772 13.124 4.262 5.743 1.596c46.251 12.339 85.321 2.492 126.758-38.916l51.785-50.022 15.245-14.993c16.9-17.233 28.070-30.891 36.322-45.325 32.653-57.122 10.829-110.643-73.779-194.935l-8.047-8.158c-12.634-12.173-24.435-20.894-41.775-29.129-29.103-13.82-63.488-19.029-103.441-13.47-98.453 13.692-223.317 91.371-381.539 249.549-12.879 12.877-25.215 25.506-37.019 37.888l-22.902 24.444c-214.607 233.163-233.54 376.393-145.591 466.223l5.698 5.66zM337.34 777.347c-13.9 13.705-23.998 22.058-32.9 27.177-19.692 11.324-40.952 6.537-80.3-27.329l-12.363-11.045c-2.156-1.991-4.362-4.057-6.62-6.201l-14.177-13.808-1.277-1.596-9.611-9.656c-23.226-23.723-34.227-52.677-24.747-102.47 15.557-81.708 86.764-192.547 230.037-335.788 149.286-149.244 263.031-220.006 345.105-231.42 47.846-6.656 72.252 4.932 97.139 30.43l18.982 19.153c8.9 9.314 16.503 17.758 22.925 25.468l8.759 11.038c22.387 29.815 24.431 47.706 14.857 64.452-3.639 6.374-8.939 13.359-16.653 21.901l-10.462 11.051-6.195 6.195-65.331 63.087c-21.833 20.134-36.753 22.989-59.405 16.947l-6.541-1.882-27.063-9.186c-78.511-25.357-135.151-13.060-218.56 70.323-86.383 86.366-96.514 144.035-67.57 227.073l1.857 5.336 5.135 15.47 2.524 9.86c4.474 21.46-0.634 36.423-23.703 59.495-0.95 0.95-2.011 2.020-3.167 3.192l-60.675 62.732z" />
<glyph unicode="&#xe918;" glyph-name="plane" d="M997.182 687.923c-5.901 14.349-19.337 24.119-34.886 25.22l-900.659 60.574c-15.483 0.915-30.114-6.836-37.829-20.174-7.738-13.373-7.209-30.002 1.383-42.835l156.183-233.694-105.84-159.994c-8.189-12.378-8.938-28.211-2.009-41.343 3.236-6.128 7.804-11.178 12.176-14.067 6.37-4.209 13.942-6.624 21.876-6.737l223.477-2.953 100.406-150.264c3.043-4.543 6.913-8.364 11.364-11.307 5.752-3.805 12.444-6.139 19.5-6.624 12.482-0.911 24.726 4.037 33.062 13.355l493.112 549.288c11.614 10.739 14.428 27.25 8.682 41.555zM703.332 649.156l-458.692-120.015-106.171 158.123 564.863-38.108zM182.964 335.087l46.029 69.58 47.321-70.813-93.35 1.234zM471.131 189.359l-179.898 269.247 549.444 142.28-369.546-411.527z" />
<glyph unicode="&#xe919;" glyph-name="play" horiz-adv-x="896" d="M842.667 521.902c56.887-32.849 56.887-114.961 0-147.806l-704-406.451c-56.889-32.845-128 8.209-128 73.899v812.91c0 65.69 71.111 106.746 128 73.901l704-406.453z" />
<glyph unicode="&#xe91a;" glyph-name="plus" d="M419.517 823.876c0 24.168 19.593 43.76 43.761 43.76h97.246c11.607 0 22.737-4.61 30.943-12.817s12.818-19.338 12.818-30.943v-329.32h329.409c24.169 0 43.761-19.593 43.761-43.761v-97.246c0-24.168-19.592-43.761-43.761-43.761h-329.409v-329.3c0-24.166-19.593-43.762-43.761-43.762h-97.246c-11.607 0-22.737 4.608-30.943 12.819s-12.818 19.335-12.818 30.943v329.3h-329.211c-24.168 0-43.761 19.593-43.761 43.761v97.246c0 24.168 19.592 43.761 43.761 43.761h329.211v329.32z" />
<glyph unicode="&#xe91b;" glyph-name="podcast" d="M501.333 0.004c-17.664 0-32 14.336-32 32v134.869c0 17.664 14.336 32 32 32s32-14.336 32-32v-134.869c0-17.664-14.336-32-32-32zM501.333 853.333c-77.91 0-141.312-63.744-141.312-142.123v-200.021c0-78.293 63.403-142.080 141.312-142.080s141.269 63.787 141.269 142.080v200.021c0 78.379-63.36 142.123-141.269 142.123zM501.333 305.109c-113.195 0-205.312 92.459-205.312 206.080v200.021c0 113.664 92.117 206.123 205.312 206.123s205.269-92.459 205.269-206.123v-200.021c0-113.621-92.075-206.080-205.269-206.080zM501.333 134.878c-205.867 0-373.333 168.192-373.333 374.955 0 17.664 14.336 32.001 32 32.001s32-14.337 32-32.001c0-171.435 138.752-310.955 309.333-310.955s309.333 139.52 309.333 310.955c0 17.664 14.336 32.001 32 32.001s32-14.337 32-32.001c0-206.763-167.467-374.955-373.333-374.955zM674.5 650.417h-84.907c-17.664 0-32 14.336-32 32s14.336 32 32 32h84.907c17.664 0 32-14.336 32-32s-14.336-32-32-32zM674.586 507.998h-127.573c-17.664 0-32 14.336-32 32.002 0 17.664 14.336 32 32 32h127.573c17.664 0 32-14.336 32-32 0-17.666-14.336-32.002-32-32.002z" />
<glyph unicode="&#xe91c;" glyph-name="post" d="M323.13 810.167c-70.699 0-129.408-57.259-131.072-127.872v-456.319c-1.579-73.088 56.021-133.291 128.384-134.912h344.062c71.211 2.944 127.616 62.123 127.104 134.656v378.452l-197.76 205.995h-270.718zM323.642 27.063h-4.651c-107.605 2.432-193.28 91.947-190.933 199.595v456.404c2.475 105.856 89.899 191.104 194.987 191.104h284.457c8.704 0 17.024-3.541 23.083-9.813l216.107-225.152c5.717-5.931 8.917-13.909 8.917-22.144v-391.082c0.768-107.051-82.603-194.517-189.824-198.869l-342.142-0.043zM823.394 576.662h-117.547c-78.080 0.213-141.568 63.872-141.568 141.867v124.117c0 17.664 14.336 32 32 32s32-14.336 32-32v-124.117c0-42.837 34.859-77.739 77.653-77.867h117.461c17.664 0 32-14.336 32-32s-14.336-32-32-32zM588.318 272.708h-230.401c-17.664 0-32 14.336-32 32s14.336 32 32 32h230.401c17.664 0 32-14.336 32-32s-14.336-32-32-32zM501.065 432.794h-143.189c-17.664 0-32 14.336-32 32s14.336 32 32 32h143.189c17.664 0 32-14.336 32-32s-14.336-32-32-32z" />
<glyph unicode="&#xe91d;" glyph-name="profile" d="M508.629 277.5c-181.803 0-273.963-31.232-273.963-92.885 0-62.208 92.16-93.739 273.963-93.739 181.76 0 273.877 31.232 273.877 92.885 0 62.208-92.117 93.739-273.877 93.739zM508.629 26.876c-83.584 0-337.963 0-337.963 157.739 0 140.629 192.896 156.885 337.963 156.885 83.584 0 337.877 0 337.877-157.739 0-140.629-192.853-156.885-337.877-156.885zM508.625 813.76c-91.35 0-165.675-74.283-165.675-165.632-0.299-91.051 73.472-165.29 164.438-165.632l1.237-30.464v30.464c91.307 0 165.589 74.325 165.589 165.632 0 91.349-74.283 165.632-165.589 165.632zM508.625 421.611h-1.365c-124.672 0.384-225.664 102.059-225.238 226.645 0 124.8 101.632 226.432 226.603 226.432 124.928 0 226.517-101.632 226.517-226.56s-101.589-226.517-226.517-226.517z" />
<glyph unicode="&#xe91e;" glyph-name="search-Stroke" d="M464 816c176.73 0 320-143.269 320-320 0-85.796-33.766-163.706-88.73-221.165-1.843-1.472-3.616-3.066-5.325-4.768-1.702-1.702-3.29-3.482-4.768-5.325-57.459-54.976-135.375-88.742-221.178-88.742-176.731 0-320 143.27-320 320s143.269 320 320 320zM822.816 227.712c56.006 74.784 89.184 167.662 89.184 268.288 0 247.423-200.576 448-448 448s-448-200.577-448-448c0-247.424 200.577-448 448-448 100.634 0 193.517 33.178 268.307 89.197l166.438-166.438c24.998-24.992 65.517-24.992 90.515 0 24.992 24.992 24.992 65.517 0 90.509l-166.445 166.445z" />
<glyph unicode="&#xe91f;" glyph-name="star" d="M501.329 768c-3.883 0-13.44-1.067-18.517-11.221l-77.908-155.776c-12.331-24.619-36.096-41.728-63.573-45.653l-174.421-25.131c-11.52-1.664-15.445-10.197-16.64-13.781-1.067-3.456-2.773-12.245 5.163-19.84l126.123-121.173c20.096-19.328 29.227-47.189 24.448-74.453l-29.696-171.093c-1.835-10.709 4.864-16.939 7.851-19.072 3.157-2.389 11.605-7.125 22.059-1.664l155.946 80.853c24.576 12.672 53.845 12.672 78.336 0l155.904-80.811c10.496-5.419 18.944-0.683 22.144 1.621 2.987 2.133 9.685 8.363 7.851 19.072l-29.781 171.093c-4.779 27.264 4.352 55.125 24.448 74.453l126.123 121.173c7.979 7.595 6.272 16.427 5.163 19.84-1.152 3.584-5.077 12.117-16.597 13.781l-174.421 25.131c-27.435 3.925-51.2 21.035-63.531 45.696l-77.995 155.733c-5.035 10.155-14.592 11.221-18.475 11.221zM296.402 42.667c-17.621 0-35.115 5.547-50.091 16.469-25.856 18.944-38.528 50.219-33.024 81.707l29.696 171.093c1.109 6.357-1.067 12.8-5.76 17.323l-126.123 121.173c-23.211 22.229-31.531 55.083-21.717 85.589 9.899 30.848 36.096 52.907 68.395 57.515l174.421 25.131c6.741 0.939 12.544 5.077 15.445 10.965l77.952 155.819c14.378 28.715 43.391 46.549 75.732 46.549v0c32.341 0 61.355-17.835 75.733-46.549l77.995-155.776c2.944-5.931 8.704-10.069 15.403-11.008l174.421-25.131c32.299-4.608 58.496-26.667 68.395-57.515 9.813-30.507 1.451-63.36-21.76-85.589l-126.123-121.173c-4.693-4.523-6.827-10.965-5.717-17.28l29.739-171.136c5.461-31.531-7.211-62.805-33.109-81.707-26.24-19.243-60.416-21.845-89.387-6.741l-155.861 80.768c-6.101 3.157-13.397 3.157-19.499 0l-155.86-80.811c-12.459-6.485-25.899-9.685-39.296-9.685z" />
<glyph unicode="&#xe920;" glyph-name="video-2" d="M292.154 682.589c-18.731 0-30.805 0-32.896-0.085-31.488-1.323-60.544-14.677-81.493-37.547-19.541-21.376-29.611-48.683-28.288-77.013 0-123.433 0.043-308.692 0.341-318.847 4.864-59.093 60.245-104.277 123.648-99.413 117.333-0.171 291.159-0.555 299.309-0.256 31.36 1.28 60.459 14.592 81.408 37.419 19.584 21.291 29.653 48.597 28.416 76.8-0.043 0.469-0.043 0.939-0.043 1.408 0.043 122.027 0.043 307.156-0.256 317.097-4.821 59.392-60.459 105.131-124.203 100.139-88.149 0.128-208.429 0.299-265.943 0.299zM262.244 85.257c-90.197-0.043-168.875 69.077-176.299 159.744-0.128 1.749-0.555 7.083-0.427 321.492-2.048 43.989 13.909 87.68 45.056 121.685 32.512 35.499 77.355 56.192 126.293 58.283 5.931 0.427 211.074-0.085 298.925-0.256 96 6.741 182.656-64.512 190.379-160.128 0.341-4.651 0.469-112.383 0.384-320.383 1.792-45.056-14.251-88.448-45.227-122.155-32.555-35.456-77.44-56.064-126.336-58.069-5.973-0.427-211.202 0.128-299.181 0.299-4.523-0.341-9.045-0.512-13.568-0.512zM888.26 177.097c-19.243 0-38.229 6.613-53.888 19.456l-139.989 115.029c-13.653 11.221-15.616 31.403-4.395 45.056 11.179 13.611 31.36 15.659 45.013 4.395l139.947-115.029c9.429-7.68 18.901-4.523 22.571-2.731 3.669 1.707 12.16 7.040 12.16 19.157l0.512 313.557c0.043 12.117-8.491 17.451-12.16 19.2-3.627 1.707-13.227 4.907-22.571-2.773l-140.501-114.986c-13.739-11.221-33.835-9.216-45.013 4.523-11.221 13.653-9.173 33.792 4.48 44.971l140.501 115.029c25.771 21.12 60.459 25.259 90.539 11.051 30.080-14.293 48.768-43.819 48.725-77.099l-0.512-313.557c-0.043-33.28-18.773-62.805-48.811-76.971-11.776-5.589-24.235-8.277-36.608-8.277z" />
<glyph unicode="&#xe921;" glyph-name="video" d="M522.667 810.667c-205.867 0-373.333-167.467-373.333-373.333s167.467-373.333 373.333-373.333c205.867 0 373.333 167.467 373.333 373.333s-167.467 373.333-373.333 373.333zM522.667 0c-241.152 0-437.333 196.181-437.333 437.333s196.181 437.333 437.333 437.333c241.152 0 437.333-196.181 437.333-437.333s-196.181-437.333-437.333-437.333zM475.042 529.643c-7.552-42.709-7.68-144.725-0.128-185.259 37.461 13.227 118.613 66.56 140.459 92.971-21.76 25.643-101.888 77.867-140.331 92.288v0zM461.986 277.269c-11.52 0-22.443 3.285-31.36 12.16-6.871 6.784-25.218 24.917-25.303 144.341-0.043 126.805 19.029 145.664 25.303 151.936 22.315 22.101 58.667 6.955 74.155 0.469 22.187-9.259 177.877-89.002 177.877-148.65 0-55.893-140.117-134.059-175.915-148.992-13.952-5.803-29.867-11.264-44.757-11.264v0z" />
</font>
</defs>
</svg>
